<?xml version="1.0" standalone="no"?>
<!DOCTYPE svg PUBLIC "-//W3C//DTD SVG 1.1//EN" "http://www.w3.org/Graphics/SVG/1.1/DTD/svg11.dtd" >
<svg xmlns="http://www.w3.org/2000/svg">
<metadata></metadata>
<defs>
<font id="urdu_naskh_asiatyperegular" horiz-adv-x="398" >
<font-face units-per-em="2048" ascent="1638" descent="-410" />
<missing-glyph horiz-adv-x="500" />
<glyph horiz-adv-x="0" />
<glyph unicode="&#xd;" horiz-adv-x="500" />
<glyph unicode=" "  horiz-adv-x="500" />
<glyph unicode="&#x09;" horiz-adv-x="500" />
<glyph unicode="&#xa0;" horiz-adv-x="500" />
<glyph unicode="!" d="M118 799v232h166v-232l-36 -549h-91zM124 -5v153h155v-153h-155z" />
<glyph unicode="&#x22;" horiz-adv-x="509" d="M61 858v173h153v-173l-32 -200h-85zM293 858v173h154v-173l-35 -200h-84z" />
<glyph unicode="#" horiz-adv-x="797" d="M10 276v114h140l50 244h-190v114h213l61 301h115l-61 -301h210l61 301h116l-61 -301h120v-114h-143l-51 -244h194v-114h-217l-60 -298h-115l60 298h-210l-61 -298h-115l61 298h-117zM265 390h210l50 244h-210z" />
<glyph unicode="$" horiz-adv-x="797" d="M46 289l136 26q16 -106 52 -152q50 -64 118 -72v391q-77 15 -156 60q-128 71 -128 232q0 137 97 222q62 54 187 68v62h84v-61q240 -26 275 -261l-140 -22q-20 140 -135 166v-353q95 -24 123 -36q175 -75 176 -267q1 -133 -82 -220t-217 -97v-128h-84v127 q-181 24 -255 142q-42 67 -51 173zM204 784q0 -125 148 -170v335q-148 -25 -148 -165zM436 91q72 9 116 64t44 128q0 75 -45 118q-35 33 -115 60v-370z" />
<glyph unicode="%" horiz-adv-x="1275" d="M78 780q-1 111 53 186q60 82 168 83q112 1 173 -85q54 -75 55 -192q1 -115 -54 -191q-62 -84 -173 -85q-113 -1 -172 89q-49 75 -50 195zM198 767q-1 -174 104 -174t105 184q0 173 -105 175q-103 2 -104 -185zM295 -43l566 1092h114l-565 -1092h-115zM742 241 q-1 113 52 186q59 82 169 83q113 1 174 -85q54 -75 54 -192q0 -116 -54 -191q-61 -84 -173 -85q-115 -1 -173 88q-48 74 -49 196zM862 228q0 -172 104 -174q106 -2 106 184q0 173 -105 175t-105 -185z" />
<glyph unicode="&#x26;" horiz-adv-x="956" d="M57 283q0 191 241 308q-113 134 -113 224q0 103 80 170q75 63 180 64q99 1 170 -61q74 -65 74 -163q0 -147 -191 -252l175 -224q28 58 46 140l141 -30q-33 -135 -91 -225q68 -90 161 -157l-90 -108q-75 47 -159 144q-123 -135 -295 -135q-161 0 -254 108q-75 87 -75 197z M202 290q0 -77 54.5 -134t131.5 -57q124 0 208 121l-226 280q-168 -102 -168 -210zM325 827q0 -47 48 -103l53 -62q123 74 124 159q1 48 -31.5 81t-79.5 33q-49 0 -81.5 -30t-32.5 -78z" />
<glyph unicode="'" horiz-adv-x="274" d="M58 855v176h153v-176l-34 -197h-86z" />
<glyph unicode="(" horiz-adv-x="477" d="M82 372q0 341 250 677h103q-94 -163 -116 -215q-98 -227 -98 -463q0 -334 214 -678h-102q-251 319 -251 679z" />
<glyph unicode=")" horiz-adv-x="477" d="M43 -307q214 342 214 678q0 245 -97 461q-34 76 -117 217h103q250 -337 250 -677q0 -361 -251 -679h-102z" />
<glyph unicode="*" horiz-adv-x="558" d="M39 835l35 108q110 -38 159 -65q-11 106 -13 171h111q-2 -75 -15 -170q70 33 162 64l35 -108q-80 -28 -169 -40q42 -38 117 -130l-92 -65q-42 56 -95 147q-51 -95 -90 -147l-91 65q77 96 112 131q-96 18 -166 39z" />
<glyph unicode="+" horiz-adv-x="837" d="M75 442v128h279v279h129v-279h279v-128h-279v-281h-129v281h-279z" />
<glyph unicode="," d="M112 -147q75 31 82 142h-72v153h154v-148q0 -155 -124 -209z" />
<glyph unicode="-" horiz-adv-x="416" d="M-5 263v180h495v-180h-495z" />
<glyph unicode="." d="M125 -5v153h154v-153h-154z" />
<glyph unicode="/" d="M-7 -22l300 1071h112l-300 -1071h-112z" />
<glyph unicode=":" d="M124 -5v153h154v-153h-154zM124 595v153h154v-153h-154z" />
<glyph unicode=";" d="M112 -147q75 31 82 142h-72v153h154v-148q0 -155 -124 -209zM122 595v153h154v-153h-154z" />
<glyph unicode="&#x3c;" horiz-adv-x="837" d="M73 446v123l690 292v-136l-531 -218l531 -221v-136z" />
<glyph unicode="=" horiz-adv-x="837" d="M75 287v127h687v-127h-687zM75 598v128h687v-128h-687z" />
<glyph unicode="&#x3e;" horiz-adv-x="837" d="M73 150v136l531 221l-531 218v136l690 -292v-123z" />
<glyph unicode="?" horiz-adv-x="797" d="M57 744q17 147 105.5 225.5t232.5 79.5q137 1 231 -72q103 -79 104 -213q1 -82 -47 -151q-30 -43 -110 -115q-48 -43 -64 -61q-32 -37 -42 -76q-8 -31 -11 -113h-131v42q0 128 71 214q69 57 176 179q18 32 19 72q1 75 -58 127t-135 53q-167 2 -202 -209zM318 -5v153h153 v-153h-153z" />
<glyph unicode="@" horiz-adv-x="1455" d="M73 328q0 171 70 328q177 394 628 394q375 0 534 -286q68 -121 69 -265q1 -202 -144 -363q-129 -143 -282 -144q-93 -1 -126 60q-8 13 -13 50q-97 -109 -211 -109q-149 0 -222 151q-36 76 -37 168q-1 110 55 221q57 115 146 174q85 56 168 57q126 1 209 -121l22 100h135 l-102 -475q-21 -97 -21 -108q0 -40 44 -41q34 -1 95 42q169 118 171 340q1 124 -67 228q-67 100 -181 154.5t-248 54.5q-163 0 -295 -75q-136 -77 -209.5 -218t-74.5 -306q-2 -352 287 -473q138 -59 311 -59q340 0 490 211h137q-45 -95 -145 -173q-193 -151 -480 -152 q-316 -1 -507 156q-206 170 -206 479zM479 304q-1 -76 33 -132q40 -65 112 -66q81 -1 161 92q89 104 89 256q0 81 -37 134q-43 61 -120 61q-88 0 -157 -93q-80 -108 -81 -252z" />
<glyph unicode="[" d="M92 -290v1321h288v-114h-152v-1093h152v-114h-288z" />
<glyph unicode="\" d="M-7 1049h112l300 -1071h-112z" />
<glyph unicode="]" d="M22 -176h152v1093h-152v114h288v-1321h-288v114z" />
<glyph unicode="^" horiz-adv-x="673" d="M30 478l252 571h107l254 -571h-138l-170 410l-165 -410h-140z" />
<glyph unicode="_" horiz-adv-x="797" d="M-27 -189h845v-101h-845v101z" />
<glyph unicode="`" horiz-adv-x="477" d="M51 1037h183l99 -206h-111z" />
<glyph unicode="{" horiz-adv-x="479" d="M35 309v124q109 3 133 101q10 41 12 165q0 47 4 154q8 107 68 155q24 19 66 34q32 7 88 7h44v-120h-27q-69 0 -92 -25t-23 -114q0 -185 -8 -232q-23 -130 -131 -187q86 -40 117 -128q21 -61 22 -187q1 -141 3 -162q5 -50 33 -67q23 -14 79 -14h27v-120h-44q-66 0 -101 12 q-97 35 -116 147q-9 51 -8 181q0 117 -13 175q-23 98 -133 101z" />
<glyph unicode="|" horiz-adv-x="372" d="M127 -307v1356h119v-1356h-119z" />
<glyph unicode="}" horiz-adv-x="479" d="M28 -187h27q74 0 97 32q18 25 18 107q0 177 6 223q19 141 133 196q-88 45 -118 128q-20 58 -21 188t-4 163q-5 49 -34 66q-22 13 -77 13h-27v120h44q64 0 101 -12q98 -33 115 -147q9 -60 10 -182q1 -109 4 -132q10 -80 51 -114q32 -26 90 -29v-124q-56 0 -90 -28 q-39 -32 -50 -110q-4 -26 -5 -127q0 -47 -4 -154q-12 -153 -134 -189q-27 -8 -88 -8h-44v120z" />
<glyph unicode="~" horiz-adv-x="837" d="M56 378v157q77 87 199 87q78 0 222 -61q74 -32 119 -32q91 0 186 103v-163q-86 -83 -199 -83q-75 0 -204 57q-80 36 -135 37q-80 1 -188 -102z" />
<glyph unicode="&#xa2;" horiz-adv-x="1004" d="M105 512q0 201 165 340q142 120 344 120q31 0 76 -4l6 -1l97 243h51l-100 -254q171 -45 171 -143q0 -87 -88 -87q-65 0 -144 84l-220 -551q71 -61 158 -61q136 0 262 141l33 -18q-141 -198 -388 -198q-50 0 -116 10l-132 -333h-51l137 345q-261 106 -261 367zM345 586 q0 -157 80 -286l224 548q-65 60 -117 60q-115 0 -164 -157q-23 -73 -23 -165z" />
<glyph unicode="&#xa3;" horiz-adv-x="1139" d="M27 145q230 127 230 392q0 61 -17 124h-196v148h154q-51 173 -51 264q0 209 154 325q123 93 300 93q182 0 299 -99.5t144 -279.5l-179 -27q-14 113 -83 183q-74 75 -185 75q-107 0 -181 -68q-77 -70 -77 -176q0 -111 57 -290h315v-148h-284q19 -44 19 -88 q0 -193 -178 -382q79 22 144 22q82 0 187 -25q171 -41 233 -41q74 0 192 56l58 -165q-149 -63 -243 -63q-42 0 -85 8q-89 29 -262 74q-44 8 -94 8q-157 0 -302 -93z" />
<glyph unicode="&#xa4;" horiz-adv-x="1366" d="M203 403l128 125q-91 140 -91 269q0 130 91 268l-128 125l86 85l127 -128q138 91 266 91q132 0 270 -91l125 128l84 -85l-126 -128q91 -134 91 -267q0 -131 -91 -267l126 -125l-84 -85l-126 126q-134 -91 -265 -91q-129 0 -270 91l-127 -126zM360 797q0 -186 163 -281 q75 -44 161 -44q136 0 229 94.5t93 230.5q0 135 -93.5 228.5t-228.5 93.5q-185 0 -280 -162q-44 -75 -44 -160z" />
<glyph unicode="&#xa5;" horiz-adv-x="1239" d="M-100 1338v50h627v-50h-9q-146 0 -146 -79q0 -26 21 -54l96 -128h450l48 74q48 74 36 127q-13 60 -122 60h-10v50h453v-52q-103 -9 -157 -62q-33 -31 -68 -86l-72 -111h240v-50h-272l-210 -321h482v-50h-520v-296q0 -166 193 -166h16v-50h-652v50h36q171 0 171 162v300 h-574v50h535l-240 321h-295v50h259l-119 159q-48 64 -83.5 82.5t-113.5 19.5zM417 1027l200 -275l179 275h-379z" />
<glyph unicode="&#xa6;" horiz-adv-x="1159" d="M515 -132v652h129v-652h-129zM515 777v650h129v-650h-129z" />
<glyph unicode="&#xa8;" horiz-adv-x="682" d="M35 1274q0 43 32.5 75.5t75.5 32.5q44 0 76 -32t32 -76q0 -45 -31.5 -76.5t-76.5 -31.5q-44 0 -76 32t-32 76zM433 1274q0 44 32 76t76 32q43 0 75.5 -32.5t32.5 -75.5q0 -44 -32 -76t-76 -32q-45 0 -76.5 31.5t-31.5 76.5z" />
<glyph unicode="&#xa9;" horiz-adv-x="1536" d="M74 807q0 187 91.5 345.5t253 253t349.5 94.5q187 0 346 -91.5t253.5 -253t94.5 -348.5t-91.5 -345.5t-252.5 -253.5q-111 -65 -189 -83q-51 -12 -161 -12q-187 0 -345.5 91.5t-253.5 253t-95 349.5zM132 807q0 -268 184 -452t452 -184t452 184t184 452q0 269 -183.5 452 t-452.5 183q-195 0 -351.5 -105t-233.5 -285q-51 -119 -51 -245zM351 797q0 187 118 306t305 119q83 0 181 -35q48 -18 63 -18q43 0 59 51h12v-234h-12q-23 101 -91 159t-167 58q-178 0 -243 -181q-32 -87 -32 -203q0 -259 136 -347q60 -39 135 -39q132 0 245 115v-26 q-120 -118 -304 -118q-246 0 -354 191q-51 89 -51 202z" />
<glyph unicode="&#xaa;" horiz-adv-x="748" d="M115 1044q0 91 100 122l107 34q56 20 109 59v52q0 93 -95 93q-90 0 -90 -89v-7l-123 -38v16q0 82 125 121q64 20 114 20q101 0 168 -58q35 -30 35 -83v-235q0 -62 43 -62q14 0 31 10l7 -7q-71 -62 -134 -62q-60 0 -86 90q-93 -90 -170 -90q-141 0 -141 114zM245 1069 q0 -101 81 -101q37 0 105 66v211q-46 -42 -90 -62q-52 -23 -70 -40q-26 -26 -26 -74z" />
<glyph unicode="&#xab;" horiz-adv-x="834" d="M103 410l328 379h13l-237 -379l237 -385h-15zM404 410l329 379h13l-237 -379l239 -385h-17z" />
<glyph unicode="&#xac;" horiz-adv-x="1366" d="M150 969v128h1064v-599h-128v471h-936z" />
<glyph unicode="&#xad;" horiz-adv-x="416" d="M-5 263v180h495v-180h-495z" />
<glyph unicode="&#xae;" horiz-adv-x="1536" d="M74 807q0 187 91.5 345.5t253 253t349.5 94.5q187 0 346 -91.5t253.5 -253t94.5 -348.5t-91.5 -345.5t-252.5 -253.5q-111 -65 -189 -83q-51 -12 -161 -12q-187 0 -345.5 91.5t-253.5 253t-95 349.5zM132 807q0 -268 184 -452t452 -184t452 184t184 452q0 269 -183.5 452 t-452.5 183q-195 0 -351.5 -105t-233.5 -285q-51 -119 -51 -245zM382 1204h406q303 0 303 -205q0 -142 -185 -197l143 -267q42 -77 117 -110h-229l-207 368h-69v-213q0 -126 108 -155h-370q61 20 77 48t16 107v473q0 73 -12 99q-16 32 -98 52zM661 816q40 -6 62 -6 q85 0 134 55t49 141q0 185 -181 185h-64v-375z" />
<glyph unicode="&#xb2;" horiz-adv-x="641" d="M58 767v23l150 139q169 156 169 275q0 144 -123 144q-110 0 -141 -119h-40q26 113 121 159q52 26 115 26q87 0 144 -44q64 -48 64 -133q0 -65 -50 -124q-23 -28 -110 -98q-90 -73 -180 -156h231q63 0 85 30q13 17 21 50h32l-21 -172h-467z" />
<glyph unicode="&#xb3;" horiz-adv-x="641" d="M78 829q0 47 63 47q36 0 81 -47t81 -47q107 0 107 150q0 158 -125 158q-15 0 -38 -6l-13 19q119 80 119 165q0 88 -89 88q-66 0 -115 -82l-29 13q62 127 210 127q59 0 104 -24q55 -29 55 -83q0 -65 -146 -152q203 -26 203 -170q0 -111 -93 -176q-84 -59 -203 -59 q-52 0 -103 16q-69 23 -69 63z" />
<glyph unicode="&#xb4;" horiz-adv-x="682" d="M200 1121l141 357h284l-335 -357h-90z" />
<glyph unicode="&#xb6;" horiz-adv-x="1110" d="M15 942q0 176 95.5 292.5t267.5 141.5q85 12 214 12h501v-15h-28q-160 0 -160 -154v-1552h-71v1673h-210v-1673h-70v823q-367 2 -484 227q-55 104 -55 225z" />
<glyph unicode="&#xb9;" horiz-adv-x="641" d="M111 1264q137 60 233 150h65v-572q0 -56 44 -56h75v-19h-378v19h73q42 0 42 52v465q-82 -41 -145 -57z" />
<glyph unicode="&#xbc;" horiz-adv-x="1686" d="M105 1268q138 60 233 151h65v-573q0 -56 43 -56h76v-19h-378v19h73q42 0 42 52v465q-82 -41 -145 -57zM261 87l892 1332h109l-893 -1332h-108zM885 306v35l342 451h61v-434h102v-52h-102v-178h-143v178h-260zM944 358h201l-5 269z" />
<glyph unicode="&#xbd;" horiz-adv-x="1686" d="M105 1268q138 60 233 151h65v-573q0 -56 43 -56h76v-19h-378v19h73q42 0 42 52v465q-82 -41 -145 -57zM261 87l892 1332h109l-893 -1332h-108zM949 144v23l150 139q97 89 139 162q30 53 30 114q0 144 -123 144q-110 0 -141 -119h-40q26 113 121 159q52 26 115 26 q87 0 145 -44q63 -49 63 -134q0 -66 -49 -124q-40 -48 -140 -128q-133 -108 -152 -125h231q54 0 77 20q19 17 30 60h32l-21 -173h-467z" />
<glyph unicode="&#xbe;" horiz-adv-x="1686" d="M109 834q0 46 63 46q36 0 81 -47t81 -47q107 0 107 150q0 158 -126 158q-14 0 -38 -6l-12 20q119 79 119 164q0 89 -89 89q-66 0 -116 -83l-29 13q63 128 210 128q58 0 104 -25q56 -30 56 -83q0 -65 -146 -152q203 -26 203 -170q0 -111 -93 -176q-84 -59 -203 -59 q-71 0 -125 24q-47 22 -47 56zM300 87l892 1332h109l-893 -1332h-108zM924 306v35l341 451h61v-434h103v-52h-103v-178h-142v178h-260zM983 358h201l-5 269z" />
<glyph unicode="&#xc0;" horiz-adv-x="1516" d="M469 1457h183l99 -206h-111z" />
<glyph unicode="&#xd7;" horiz-adv-x="1062" d="M129 887l96 95l307 -308l302 302l94 -94l-302 -302l303 -302l-96 -96l-302 303l-305 -305l-94 94l305 305z" />
<glyph unicode="&#xf7;" horiz-adv-x="1062" d="M75 512v133h913v-133h-913zM413 245q0 49 34.5 83.5t83.5 34.5t83.5 -34.5t34.5 -83.5t-34.5 -83t-83.5 -34t-83.5 34t-34.5 83zM413 911q0 49 34.5 83.5t83.5 34.5t83.5 -34.5t34.5 -83.5t-34.5 -83t-83.5 -34t-83.5 34t-34.5 83z" />
<glyph unicode="&#x2000;" horiz-adv-x="750" />
<glyph unicode="&#x2001;" horiz-adv-x="1500" />
<glyph unicode="&#x2002;" horiz-adv-x="750" />
<glyph unicode="&#x2003;" horiz-adv-x="1500" />
<glyph unicode="&#x2004;" horiz-adv-x="500" />
<glyph unicode="&#x2005;" horiz-adv-x="375" />
<glyph unicode="&#x2006;" horiz-adv-x="250" />
<glyph unicode="&#x2007;" horiz-adv-x="250" />
<glyph unicode="&#x2008;" horiz-adv-x="187" />
<glyph unicode="&#x2009;" horiz-adv-x="300" />
<glyph unicode="&#x200a;" horiz-adv-x="83" />
<glyph unicode="&#x2010;" horiz-adv-x="416" d="M-5 263v180h495v-180h-495z" />
<glyph unicode="&#x2011;" horiz-adv-x="416" d="M-5 263v180h495v-180h-495z" />
<glyph unicode="&#x2012;" horiz-adv-x="416" d="M-5 263v180h495v-180h-495z" />
<glyph unicode="&#x2013;" horiz-adv-x="945" d="M-5 263v180h1024v-180h-1024z" />
<glyph unicode="&#x2014;" horiz-adv-x="1969" d="M-5 263v180h2048v-180h-2048z" />
<glyph unicode="&#x2018;" horiz-adv-x="641" d="M126 1124q0 198 166 284q76 40 179 39l18 -96q-91 -7 -151 -44q-75 -46 -75 -121q0 -26 27 -24q17 2 66 4q159 3 159 -140q0 -68 -48 -107q-45 -35 -115 -35q-139 0 -197 114q-29 55 -29 126z" />
<glyph unicode="&#x2019;" horiz-adv-x="641" d="M126 1305q0 66 49 106q46 36 114 36q108 0 169 -67q57 -65 57 -174q0 -150 -99 -239q-95 -86 -246 -83l-18 96q135 8 198 87q28 35 28 78q0 27 -27 25q-17 -3 -66 -6q-159 -3 -159 141z" />
<glyph unicode="&#x201a;" horiz-adv-x="641" d="M126 246q0 66 49 106q46 36 114 36q108 0 169 -67q57 -65 57 -174q0 -150 -99 -239q-95 -86 -246 -83l-18 96q135 8 198 87q28 35 28 78q0 27 -27 25q-17 -2 -66 -5q-159 -5 -159 140z" />
<glyph unicode="&#x201c;" horiz-adv-x="644" d="M75 904q0 177 189 333l42 -38q-81 -85 -100 -114q-36 -55 -37 -127q123 -11 123 -105q0 -97 -101 -97q-55 0 -88 48q-28 42 -28 100zM339 904q0 176 190 333l42 -38q-82 -86 -100 -113q-37 -56 -38 -128q123 -11 123 -105q0 -97 -101 -97q-54 0 -87 49q-29 42 -29 99z " />
<glyph unicode="&#x201d;" horiz-adv-x="644" d="M77 791q81 85 100 114q36 55 37 127q-123 11 -123 106q0 97 100 97q54 0 87 -49q28 -43 28 -100q0 -177 -189 -332zM341 791q82 86 100 113q37 56 38 128q-123 11 -123 106q0 97 99 97q56 0 88 -49q28 -42 28 -100q0 -178 -190 -332z" />
<glyph unicode="&#x201e;" horiz-adv-x="1194" d="M120 246q0 69 49 107q44 35 114 35q108 0 169 -67q57 -65 57 -174q0 -198 -167 -283q-77 -40 -178 -39l-18 96q135 8 198 87q28 35 28 78q0 27 -27 25q-17 -2 -66 -5q-159 -5 -159 140zM685 246q0 66 49 106q46 36 114 36q108 0 169 -67q57 -65 57 -174q0 -150 -99 -239 q-95 -86 -246 -83l-18 96q135 8 198 87q28 35 28 78q0 27 -27 25q-17 -2 -66 -5q-159 -5 -159 140z" />
<glyph unicode="&#x202f;" horiz-adv-x="300" />
<glyph unicode="&#x205f;" horiz-adv-x="375" />
<glyph unicode="&#x25fc;" horiz-adv-x="500" d="M0 0z" />
</font>
</defs>
</svg>
